<?xml version="1.0" standalone="no"?>
<!DOCTYPE svg PUBLIC "-//W3C//DTD SVG 1.1//EN" "http://www.w3.org/Graphics/SVG/1.1/DTD/svg11.dtd" >
<svg xmlns="http://www.w3.org/2000/svg">
<metadata>Generated by IcoMoon</metadata>
<defs>
<font id="bexon-icons" horiz-adv-x="1024">
<font-face units-per-em="1024" ascent="960" descent="-64" />
<missing-glyph horiz-adv-x="1024" />
<glyph unicode="&#x20;" horiz-adv-x="512" d="" />
<glyph unicode="&#xe900;" glyph-name="service-6" d="M526.443 784.457c174.475-7.392 314.623-147.526 322.001-322.001h-131.46c-7.174 101.906-88.649 183.381-190.555 190.555v131.446h0.013zM848.457 433.557c-7.392-174.475-147.526-314.623-322.001-322.001v322.001h322.001zM497.544 111.543c-174.475 7.392-314.609 147.539-322.001 322.014h322.001v-322.014zM175.543 462.456c7.392 174.475 147.526 314.609 322.001 322.001v-322.001h-322.001z" />
<glyph unicode="&#xe901;" glyph-name="service-5" d="M596.913 544.171c46.928 46.928 46.928 123.015 0 169.943s-123.013 46.928-169.942 0c-46.928-46.928-46.928-123.015 0-169.943s123.013-46.927 169.942 0zM426.489 277.788c15.609 36.902 35.954 71.153 60.692 102.324-73.876 79.917-179.596 129.963-297.010 129.963v-404.382h201.56c0 59.666 11.694 117.567 34.757 172.095zM833.84 105.693v404.382c-223.334 0-404.383-181.049-404.383-404.382h404.383z" />
<glyph unicode="&#xe902;" glyph-name="service-4" d="M512.010 554.672c-37.13 0-67.239 30.109-67.239 67.239v177.168h134.42v-177.224c0.057-37.13-30.051-67.183-67.182-67.183zM512.010 341.328c-37.13 0-67.239-30.109-67.239-67.239v-177.168h134.42v177.225c0.057 37.13-30.051 67.182-67.182 67.182zM436.607 523.384c-26.233-26.232-68.811-26.232-95.045 0l-125.377 125.322 95.1 95.1 125.322-125.322c26.232-26.289 26.232-68.811 0-95.1zM587.445 372.562c-26.232-26.232-26.232-68.811 0-95.043l125.322-125.322 95.043 95.043-125.32 125.322c-26.289 26.289-68.811 26.289-95.045 0zM405.336 448c0-37.129-30.109-67.237-67.239-67.237h-177.168v134.476h177.224c37.13 0 67.183-30.109 67.183-67.239zM618.699 448c0-37.129 30.109-67.237 67.239-67.237h177.168v134.476h-177.224c-37.13 0-67.183-30.109-67.183-67.239zM436.607 372.56c26.232-26.233 26.232-68.811 0-95.045l-125.322-125.32-95.1 95.1 125.322 125.32c26.289 26.233 68.811 26.233 95.1-0.056zM587.445 523.384c26.232-26.232 68.811-26.232 95.043 0l125.322 125.322-95.1 95.1-125.264-125.322c-26.289-26.289-26.289-68.811 0-95.1z" />
<glyph unicode="&#xe903;" glyph-name="service-3" d="M672.408 784.457h-200.275c0-35.584 6.192-69.822 17.605-102.014-36.394 32.569-68.589 61.424-113.92 102.014h-200.275c0-179.049 155.752-325.367 352.366-336.457-196.614-11.090-352.366-157.408-352.366-336.457h200.275c45.277 40.59 77.526 69.445 113.866 102.014-11.413-32.192-17.604-66.43-17.604-102.014h200.275c68.75 61.585 107.298 96.146 176.102 157.785v357.344c-68.697 61.639-107.244 96.2-176.049 157.785zM551.92 319.015v257.969c64.282-73.645 161.944-122.74 272.58-128.985-110.636-6.245-208.298-55.34-272.58-128.985z" />
<glyph unicode="&#xe904;" glyph-name="service-2" d="M162.826 521.178h-70.212c0-271.476 220.054-491.571 491.53-491.571v70.223c-232.704 0-421.317 188.644-421.317 421.348zM584.151 802.020v70.224c-193.921 0-351.094-157.173-351.094-351.063 0-193.922 157.174-351.135 351.094-351.135v70.223c-155.139 0-280.871 125.763-280.871 280.902 0 155.086 125.731 280.85 280.871 280.85zM584.158 731.809c-116.367 0-210.659-94.29-210.659-210.628 0-116.367 94.291-210.689 210.659-210.689v210.659l210.659 0.031c0 116.338-94.28 210.628-210.659 210.628z" />
<glyph unicode="&#xe905;" glyph-name="service-1" d="M537.359 798.841v-188.208h-118.989v-112.163h-167.733v-76.073h-89.723v376.444h376.444zM863.092 610.636v-322.812h-249.661v210.649h-76.058v112.163h325.72zM613.423 287.82v-187.24h-362.78v321.817h167.733v-134.577h195.047zM537.345 498.469h-118.974v-76.073h118.974v76.073z" />
<glyph unicode="&#xe906;" glyph-name="chat" d="M1023.962 539.738c0 196.23-190.371 355.872-424.355 355.872-233.99 0-424.356-159.644-424.356-355.872s190.366-355.872 424.356-355.872c19.674 0 39.418 1.139 58.826 3.389 90.125-57.254 156.656-88.592 197.894-93.171 1.434-0.157 2.877-0.237 4.291-0.237 13.245 0 25.504 6.602 32.803 17.667 8.16 12.384 8.694 28.090 1.424 40.915-0.336 0.611-32.16 58.672-22.979 114.131 96.816 67.75 152.096 166.762 152.096 273.178zM484.362 485.99c-34.72 0-62.861 28.144-62.861 62.861s28.141 62.861 62.861 62.861c34.714 0 62.864-28.144 62.864-62.861s-28.15-62.861-62.864-62.861zM714.864 485.99c-34.726 0-62.87 28.144-62.87 62.861s28.144 62.861 62.87 62.861c34.714 0 62.858-28.144 62.858-62.861s-28.147-62.861-62.858-62.861zM264.94 255.014c-42.106 34.864-75.297 75.674-98.639 121.293-24.611 48.096-37.088 99.261-37.088 152.067s12.479 103.968 37.088 152.065c1.884 3.681 3.857 7.317 5.867 10.936-103.934-59.545-172.168-158.927-172.168-271.273 0-100.931 54.371-194.512 149.357-257.462 17.543-68.97-23.167-141.936-23.597-142.682-2.426-4.278-2.247-9.558 0.46-13.664 2.439-3.702 6.559-5.891 10.931-5.891 0.484 0 0.965 0.029 1.454 0.080 47.522 5.28 131.207 53.578 194.605 94.304 21.354-2.896 43.178-4.362 64.957-4.362 83.283 0 160.662 21.296 224.653 57.638-14.298-1.146-28.698-1.754-43.053-1.754-118.355 0-230.16 38.605-314.827 108.704z" />
<glyph unicode="&#xe907;" glyph-name="envelop" d="M591.494 325.626c-24.509-15.51-52.086-23.363-79.661-23.363-27.194 0-54.384 7.469-77.939 22.595l-393.141 264.65c-6.511 4.403-15.128-0.192-15.128-8.045v-473.952c0-26.81 21.831-48.64 48.64-48.64h875.521c26.81 0 48.64 21.83 48.64 48.64v473.952c0 7.853-8.618 12.448-15.13 8.045l-391.802-263.882zM486.938 406.259c14.746-9.382 35.235-9.382 51.13 0.765l456.144 307.161c2.682 1.723 4.214 4.787 4.214 8.043v66.258c0 26.809-21.83 48.64-48.64 48.64h-875.521c-26.809 0-48.64-21.831-48.64-48.64v-66.258c0-3.255 1.532-6.319 4.213-8.043l457.1-307.925z" />
<glyph unicode="&#xe908;" glyph-name="award" d="M4.080 886.101h666.746v-149.806c0-124.836-71.123-235.752-172.45-292.907l-7.423 13.161c96.867 54.64 164.763 160.688 164.763 279.746v134.697h-636.527v-134.697c0-119.846 62.587-222.337 160.169-276.687l-7.352-13.2c-102.374 57.019-167.927 164.563-167.927 289.887v149.806zM278.377 135.33v155.059h15.109v-170.169h-149.739v-100.394h391.972v100.394h-154.934v170.169h15.11v-155.059h154.932v-130.614h-422.191v130.614h149.74zM218.422 875.872v-336.236h-15.109v336.236h15.109zM455.489 539.636v336.236h15.109v-336.236h-15.109zM288.144 876.965l-2.307-286.418-15.11 0.122 2.309 286.418 15.109-0.122zM385.768 591.309v284.563h15.109v-284.563h-15.109zM336.211 593.052c-80.246 0-145.978-62.224-151.622-141.101v-0.003c-0.258-3.587-0.376-7.272-0.405-11.037 0.015-83.998 68.083-152.083 152.027-152.083 83.955 0 152.030 68.101 152.030 152.112 0 84.009-68.075 152.113-152.030 152.113zM169.519 453.032c6.206 86.717 78.455 155.13 166.692 155.13 92.307 0 167.14-74.877 167.14-167.223 0-92.349-74.833-167.222-167.14-167.222-92.305 0-167.137 74.873-167.137 167.222v0.059c0.031 4.003 0.156 8.030 0.445 12.031zM336.422 557.17l35.702-72.396 79.837-11.598-57.751-56.333 13.644-79.538-71.43 37.56-71.402-37.563 13.644 79.542-57.75 56.332 79.806 11.599 35.702 72.396zM336.422 523.008l-25.665-52.042-57.387-8.341 41.53-40.509-9.809-57.183 51.33 27.005 51.363-27.008-9.809 57.187 41.529 40.507-57.416 8.341-25.665 52.044z" />
<glyph unicode="&#xe909;" glyph-name="team" d="M759.707 346.93l-3.462-1.983 3.805-1.196c40.555-12.757 75.992-38.102 101.169-72.36 25.178-34.257 38.787-75.645 38.854-118.159v-9.872c0-2.984-1.185-5.844-3.294-7.953s-4.971-3.295-7.955-3.295h-753.648c-2.984 0-5.845 1.186-7.955 3.295s-3.294 4.97-3.294 7.953v9.877c-0.020 42.353 13.402 83.62 38.334 117.857 24.931 34.238 60.086 59.679 100.401 72.661l3.762 1.211-3.429 1.964c-26.668 15.279-46.175 40.524-54.23 70.185-8.054 29.66-3.996 61.305 11.281 87.973 15.279 26.668 40.525 46.175 70.185 54.23s61.305 3.996 87.973-11.281l1.083-0.62 0.937 0.823c20.763 18.239 45.114 31.928 71.486 40.187l3.727 1.167-3.356 1.998c-21.797 12.979-38.732 32.754-48.204 56.289-9.471 23.535-10.956 49.528-4.225 73.987 6.73 24.461 21.304 46.035 41.482 61.411s44.847 23.703 70.216 23.703c25.368 0 50.036-8.327 70.215-23.703s34.752-36.95 41.482-61.411c6.73-24.46 5.247-50.453-4.225-73.987s-26.406-43.309-48.204-56.289l-3.356-1.998 3.727-1.167c26.373-8.259 50.724-21.949 71.486-40.187l0.938-0.823 1.082 0.62c26.668 15.277 58.313 19.335 87.973 11.281s54.907-27.562 70.185-54.23 19.336-58.313 11.281-87.973c-8.054-29.661-27.561-54.906-54.229-70.185zM793.765 446.249v0.013c-0.173 24.529-9.994 48.005-27.341 65.35-17.345 17.346-40.82 27.167-65.35 27.341h-0.013c-18.335 0-36.258-5.438-51.503-15.624s-27.128-24.664-34.143-41.603c-7.017-16.939-8.853-35.578-5.276-53.561s12.407-34.501 25.371-47.466c12.965-12.964 29.483-21.794 47.466-25.371s36.622-1.741 53.561 5.276c16.939 7.016 31.418 18.899 41.603 34.143 10.186 15.245 15.624 33.167 15.624 51.503zM419.297 690.392v-0.005c0.242-24.507 10.084-47.942 27.414-65.272s40.766-27.172 65.272-27.414h0.005c18.519-0.13 36.659 5.249 52.112 15.457s27.52 24.78 34.668 41.865c7.147 17.085 9.052 35.909 5.47 54.079s-12.485 34.865-25.58 47.96-29.79 22-47.96 25.58c-18.169 3.581-36.994 1.677-54.079-5.471-17.085-7.147-31.658-19.215-41.865-34.667s-15.587-33.593-15.457-52.112zM623.469 533.165l1.555 1.364-1.605 1.303c-31.491 25.573-70.851 39.482-111.418 39.373-40.612 0.14-80.023-13.77-111.55-39.373l-1.61-1.307 1.563-1.364c13.773-12.012 24.49-27.13 31.266-44.104s9.417-35.315 7.703-53.51c-1.713-18.196-7.731-35.722-17.556-51.133s-23.176-28.262-38.949-37.494l-3.391-1.984 3.746-1.186c28.94-9.159 55.421-24.771 77.446-45.658s39.018-46.504 49.698-74.916l1.641-4.364 1.628 4.368c10.618 28.471 27.57 54.154 49.574 75.109s48.485 36.635 77.44 45.85l3.724 1.186-3.368 1.982c-15.701 9.245-28.985 22.082-38.762 37.459-9.776 15.375-15.766 32.851-17.478 50.991s0.904 36.428 7.632 53.361c6.728 16.932 17.377 32.028 31.071 44.046zM146.424 156.354v-1.745h354.327v1.745c0 46.986-18.665 92.048-51.89 125.274-33.224 33.224-78.286 51.89-125.274 51.89-46.986 0-92.048-18.666-125.274-51.89-33.224-33.225-51.89-78.287-51.89-125.274zM523.249 156.354v-1.745h354.327v1.745c0 46.986-18.666 92.048-51.89 125.274-33.225 33.224-78.287 51.89-125.274 51.89-46.988 0-92.049-18.666-125.274-51.89-33.225-33.225-51.89-78.287-51.89-125.274zM245.968 498.113c-10.259-15.352-15.734-33.401-15.734-51.864 0-24.759 9.836-48.503 27.343-66.011s41.251-27.342 66.010-27.342c18.463 0 36.513 5.475 51.864 15.732 15.352 10.259 27.318 24.838 34.383 41.896s8.913 35.828 5.312 53.937c-3.603 18.109-12.493 34.743-25.549 47.799s-29.689 21.946-47.799 25.549c-18.109 3.601-36.878 1.752-53.936-5.313-17.059-7.066-31.638-19.030-41.896-34.382z" />
<glyph unicode="&#xe90a;" glyph-name="support" d="M654.12 511.374h73.286l3.001-300.368-8.111-0.080v-6.45h-68.176v306.899zM714.311 220.475l-2.746 274.899h-41.445v-274.899h44.191zM722.437 511.104c60.719-24.343 103.596-84.262 103.596-154.257 0-69.013-42.596-126.87-101.595-151.878l-6.244 14.73c53.496 22.676 91.839 74.993 91.839 137.147 0 63.327-38.778 117.448-93.549 139.406l5.953 14.851zM101.583 177.847l-0.055 32.431 16 0.027 0.055-32.431-16-0.027zM101.532 210.276l-0.521 293.083 16 0.029 0.52-293.084-16-0.028zM100.98 530.115c0 168.582 140.376 304.896 313.104 304.896 172.713 0 313.108-136.262 313.131-304.853 0-0.014 0-0.028 0-0.043l0.273-26.66-16-0.163-0.272 26.742-0.001 0.081c0 159.365-132.824 288.896-297.131 288.896-164.303 0-297.101-129.555-297.104-288.89 0-0.002 0 0.002 0 0l0.038-18.719h58.589l-0.289-306.945-70.021-1.087-1.567 0.67c-58.854 25.187-100.095 84.146-100.095 152.806 0 67.604 39.991 125.795 97.388 151.609l-0.044 21.644v0.016zM111.133 495.402c-53.666-22.448-91.496-76.001-91.496-138.555 0-61.519 36.578-114.34 88.847-137.425l50.851 0.79 0.258 275.191h-48.46zM117.58 89.391v124.326h-16v-140.326h227.632v16h-211.632zM319.824 81.663c0 16.482 13.313 30.101 29.832 30.101h58.565c16.518 0 29.832-13.619 29.832-30.101v-0.55c0-16.482-13.314-30.101-29.832-30.101h-58.565c-16.519 0-29.832 13.619-29.832 30.101v0.55zM349.656 95.764c-7.497 0-13.832-6.271-13.832-14.101v-0.55c0-7.83 6.335-14.101 13.832-14.101h58.565c7.497 0 13.832 6.271 13.832 14.101v0.55c0 7.83-6.335 14.101-13.832 14.101h-58.565zM509.71 357.592c0 23.824 19.106 43.307 42.877 43.307 23.773 0 42.88-19.482 42.88-43.307 0-23.824-19.107-43.307-42.88-43.307-23.771 0-42.877 19.483-42.877 43.307zM552.586 384.899c-14.75 0-26.877-12.134-26.877-27.307s12.126-27.307 26.877-27.307c14.754 0 26.88 12.134 26.88 27.307s-12.126 27.307-26.88 27.307zM371.892 357.592c0 23.824 19.103 43.307 42.877 43.307 23.771 0 42.877-19.483 42.877-43.307s-19.106-43.307-42.877-43.307c-23.773 0-42.877 19.483-42.877 43.307zM414.769 384.899c-14.751 0-26.877-12.134-26.877-27.307s12.125-27.307 26.877-27.307c14.75 0 26.877 12.134 26.877 27.307s-12.126 27.307-26.877 27.307zM234.074 357.592c0 23.824 19.105 43.307 42.878 43.307 23.772 0 42.877-19.483 42.877-43.307s-19.105-43.307-42.877-43.307c-23.773 0-42.878 19.483-42.878 43.307zM276.951 384.899c-14.751 0-26.878-12.134-26.878-27.307s12.126-27.307 26.878-27.307c14.751 0 26.877 12.134 26.877 27.307s-12.125 27.307-26.877 27.307z" />
<glyph unicode="&#xe90b;" glyph-name="arrow-down-big" horiz-adv-x="845" d="M23.821 358.881l-8.62 8.619-8.62-8.619 8.62-8.619 8.62 8.619zM107.846 442.906l8.62 8.619-8.62 8.621-8.62-8.621 8.62-8.619zM422.322-39.619l-8.621-8.619 8.621-8.621 8.619 8.621-8.619 8.619zM820.822 358.881l8.619-8.619 8.619 8.619-8.619 8.619-8.619-8.619zM736.797 442.906l8.619 8.619-8.619 8.621-8.619-8.621 8.619-8.619zM493.612 199.722h-12.19v-29.431l20.812 20.81-8.621 8.621zM493.612 935.619h12.19v12.191h-12.19v-12.191zM351.017 935.619v12.19h-12.19v-12.19h12.19zM351.017 199.735l-8.619-8.619 20.81-20.812v29.431h-12.19zM32.441 350.262l84.025 84.025-17.24 17.239-84.025-84.025 17.24-17.239zM430.941-31l-398.5 398.5-17.24-17.239 398.5-398.5 17.241 17.239zM812.203 367.501l-398.502-398.5 17.241-17.239 398.5 398.5-17.239 17.239zM728.178 434.287l84.025-84.025 17.239 17.239-84.025 84.025-17.239-17.239zM502.233 191.101l243.184 243.185-17.239 17.239-243.185-243.184 17.241-17.241zM481.421 935.619v-735.897h24.381v735.897h-24.381zM351.017 923.429h142.594v24.381h-142.594v-24.381zM363.208 199.735v735.884h-24.381v-735.884h24.381zM99.226 434.287l243.172-243.171 17.239 17.239-243.171 243.171-17.24-17.239z" />
<glyph unicode="&#xe90c;" glyph-name="arrow-right-big" horiz-adv-x="1240" d="M728.234-46.692l-4.834-4.834 4.834-4.836 4.836 4.836-4.836 4.834zM623.756 57.787l-4.836 4.836-4.836-4.836 4.836-4.836 4.836 4.836zM1223.738 448.812l4.834-4.836 4.836 4.836-4.836 4.836-4.834-4.836zM728.234 944.316l4.836 4.835-4.836 4.835-4.836-4.835 4.836-4.835zM623.756 839.837l-4.836 4.835-4.836-4.835 4.836-4.835 4.836 4.835zM926.124 537.469v-6.838h16.508l-11.674 11.672-4.834-4.834zM11.105 537.469v6.838h-6.838v-6.838h6.838zM11.105 360.164h-6.838v-6.838h6.838v6.838zM926.131 360.164l4.836-4.836 11.674 11.674h-16.509v-6.838zM733.069-41.856l-104.479 104.479-9.67-9.671 104.479-104.478 9.67 9.67zM1218.902 453.648l-495.503-495.504 9.67-9.67 495.503 495.503-9.67 9.671zM723.398 939.481l495.504-495.504 9.67 9.671-495.503 495.503-9.671-9.671zM628.59 835.002l104.479 104.478-9.671 9.671-104.478-104.478 9.67-9.671zM930.959 542.304l-302.368 302.369-9.67-9.671 302.368-302.368 9.67 9.67zM11.105 530.631h915.019v13.676h-915.019v-13.676zM17.943 360.164v177.306h-13.676v-177.306h13.676zM926.131 367.002h-915.026v-13.676l915.026-0.001v13.677zM628.59 52.952l302.376 302.376-9.67 9.67-302.376-302.375 9.67-9.671z" />
<glyph unicode="&#xe90d;" glyph-name="box" d="M512 820.364l-325.818-167.086 325.818-158.732 325.818 158.732-325.818 167.086zM186.182 266.366v328.43l300.753-148.29v-336.258l-300.753 156.118zM837.809 265.323v329.472l-300.758-150.38v-334.168l300.758 155.075z" />
<glyph unicode="&#xe90e;" glyph-name="complete" d="M1012.245 453.864c0-135.201-52.646-262.305-148.244-357.898-95.577-95.575-222.674-148.21-357.878-148.21-16.906 0-30.613 13.707-30.613 30.611 0 16.906 13.707 30.613 30.613 30.613 118.851 0 230.573 46.268 314.585 130.278 84.033 84.029 130.311 195.757 130.311 314.604s-46.279 230.576-130.311 314.604c-173.459 173.457-455.707 173.459-629.174 0-173.453-173.446-173.451-455.711 0.004-629.212 1.328-1.329 2.682-2.637 4.028-3.952v13.431c0 16.906 13.707 30.611 30.611 30.611 16.906 0 30.613-13.705 30.613-30.611v-87.412c0-16.906-13.707-30.613-30.613-30.613h-87.413c-16.906 0-30.612 13.707-30.612 30.613s13.706 30.611 30.612 30.611h13.588c-1.371 1.342-2.753 2.675-4.108 4.029-95.598 95.629-148.245 222.739-148.245 357.924 0 135.187 52.647 262.282 148.245 357.876 95.597 95.592 222.694 148.239 357.879 148.239 135.183 0 262.282-52.645 357.878-148.239 95.598-95.594 148.244-222.698 148.244-357.897zM445.087 212.041c-21.096 0-42.291 7.212-59.526 21.96-2.336 2.015-4.612 4.173-6.852 6.495l-135.517 138.286c-17.126 17.377-26.48 40.471-26.275 64.965 0.205 24.463 9.916 47.397 27.349 64.575 17.301 17.011 40.097 26.34 64.286 26.34 0.263 0 0.52 0 0.784-0.002 24.478-0.205 47.407-9.924 64.56-27.374l66.886-68.213 193.302 224.703c15.928 18.587 38.143 29.861 62.56 31.748 24.419 1.881 48.088-5.843 66.654-21.763 18.582-15.895 29.88-38.101 31.782-62.508 1.904-24.411-5.816-48.101-21.736-66.71l-258.535-300.534c-18.11-21.115-43.846-31.966-69.722-31.968zM468.365 283.903l258.51 300.502c5.233 6.119 7.797 13.985 7.166 22.085-0.633 8.104-4.384 15.479-10.57 20.768-6.169 5.293-14.027 7.847-22.108 7.222-8.125-0.627-15.519-4.38-20.812-10.568-0.017-0.021-0.038-0.044-0.054-0.065l-215.034-249.967c-5.586-6.495-13.644-10.353-22.208-10.633-8.568-0.288-16.856 3.045-22.854 9.164l-90.189 91.982c-5.657 5.753-13.262 8.976-21.383 9.045-0.088 0-0.176 0-0.261 0-8.035 0-15.607-3.103-21.351-8.75-5.776-5.691-9.009-13.318-9.076-21.45-0.067-8.119 3.028-15.768 8.721-21.544l135.667-138.439c0.059-0.061 0.119-0.123 0.178-0.184 0.974-1.009 1.902-1.895 2.754-2.633 12.66-10.829 31.953-9.316 42.908 3.463h-0.002z" />
<glyph unicode="&#xe90f;" glyph-name="growth" d="M912.994-4.002h-34.129v613.926c0 16.567-13.431 30.001-29.999 30.001h-143.243c-16.567 0-29.999-13.434-29.999-30.001v-613.926h-62.007v501.892c0 16.567-13.431 30.001-29.999 30.001h-143.243c-16.567 0-29.999-13.434-29.999-30.001v-501.892h-62.010v389.86c0 16.567-13.431 30.001-29.999 30.001h-143.24c-16.568 0-30-13.434-30-30.001v-389.86h-34.128c-16.568 0-30-13.431-30-29.999s13.432-30.001 30-30.001h801.994c16.567 0 29.999 13.434 29.999 30.001s-13.429 29.999-29.999 29.999zM735.627 579.925h83.241v-583.927h-83.241v583.927zM470.377 467.891h83.241v-471.893h-83.241v471.893zM205.128 355.859h83.241v-359.861h-83.241v359.861zM229.562 586.089c26.513-4.141 53.088-6.189 79.516-6.189 102.289 0 202.37 30.673 288.173 89.291 69.161 47.251 124.736 109.463 163.311 182.263l1.237-3.22c4.58-11.93 15.953-19.252 28.011-19.252 3.575 0 7.211 0.644 10.75 2.002 15.467 5.94 23.191 23.294 17.25 38.762l-27.268 71c-5.939 15.466-23.292 23.19-38.761 17.25l-71.002-27.268c-15.465-5.94-23.189-23.294-17.25-38.762 5.943-15.468 23.294-23.188 38.763-17.25l3.317 1.274c-33.961-62.688-82.3-116.33-142.204-157.256-95.315-65.118-210.59-91.17-324.58-73.363-16.373 2.551-31.715-8.64-34.273-25.011-2.558-16.369 8.638-31.712 25.010-34.27z" />
<glyph unicode="&#xe910;" glyph-name="worldwide" d="M929.184 616.715c23.102-56.902 34.816-113.666 34.816-168.715 0-249.233-202.767-452-452-452-103.108 0-202.961 36.529-284.303 103.413 9.035 14.027 14.304 30.699 14.304 48.587 0 49.626-40.375 90.001-90.001 90.001s-90-40.375-90-90.001c0-49.626 40.374-89.999 90-89.999 9.368 0 18.402 1.442 26.902 4.109 93.917-81.453 211.423-126.11 333.098-126.11 281.513 0 512 230.528 512 512 0 62.822-13.197 127.179-39.221 191.287l-55.595-22.573zM122 148c0 16.542 13.458 30.001 30 30.001s30-13.459 30-30.001c0-16.542-13.458-29.999-30-29.999s-30 13.457-30 29.999zM512 778c-181.963 0-330-148.037-330-330s148.037-330.001 330-330.001c181.963 0 330.001 148.038 330.001 330.001s-148.038 330-330.001 330zM736.388 597.999h-89.698c-7.437 34.025-18.481 69.747-34.466 100.704 50.818-20.39 94.046-55.795 124.164-100.704zM781.999 448c0-31.543-5.455-61.837-15.443-90.001h-109.833c3.467 28.9 5.276 59.136 5.276 90.001 0 30.863-1.807 61.101-5.276 90.001h109.833c9.988-28.164 15.443-58.458 15.443-90.001zM512 178.001c-35.699 0-63.93 82.839-73.122 120h146.244c-12.813-51.795-42.097-120-73.122-120zM427.727 357.999c-3.748 28.582-5.728 58.859-5.728 90.001s1.98 61.419 5.728 90.001h168.546c3.748-28.582 5.728-58.859 5.728-90.001s-1.98-61.419-5.728-90.001h-168.546zM242.001 448c0 31.543 5.455 61.837 15.443 90.001h109.833c-3.467-28.9-5.276-59.138-5.276-90.001 0-30.865 1.807-61.101 5.276-90.001h-109.833c-9.988 28.164-15.443 58.458-15.443 90.001zM512 717.999c35.699 0 63.93-82.839 73.122-120h-146.244c12.813 51.795 42.097 120 73.122 120zM411.776 698.703c-15.991-30.965-27.034-66.69-34.466-100.704h-89.698c30.118 44.909 73.346 80.314 124.164 100.704zM287.612 298.001h89.698c7.437-34.025 18.481-69.747 34.466-100.704-50.818 20.39-94.046 55.795-124.164 100.704zM612.224 197.297c15.991 30.965 27.034 66.69 34.466 100.704h89.698c-30.118-44.909-73.346-80.314-124.164-100.704zM962.001 748c0 49.626-40.375 90-90.001 90-9.367 0-18.402-1.442-26.901-4.11-93.918 81.454-211.424 126.11-333.099 126.11-281.513 0-512-230.528-512-512 0-62.822 13.196-127.179 39.222-191.285l55.594 22.569c-23.102 56.905-34.816 113.668-34.816 168.717 0 249.233 202.767 452 452 452 103.108 0 202.959-36.528 284.303-103.414-9.035-14.026-14.304-30.698-14.304-48.586 0-49.626 40.375-90.001 90.001-90.001s90.001 40.375 90.001 90.001zM842.001 748c0 16.542 13.457 30 29.999 30s29.999-13.458 29.999-30c0-16.542-13.457-30.001-29.999-30.001s-29.999 13.459-29.999 30.001z" />
<glyph unicode="&#xe911;" glyph-name="check" horiz-adv-x="1365" d="M485.519 124.537c53.692 57.902 106.33 114.752 158.968 171.601 177.918 192.656 356.888 385.313 534.808 579.022 22.107 24.214 47.377 37.9 80.009 31.583 61.065-11.58 85.276-83.169 43.167-130.543-36.853-42.11-75.799-83.168-113.698-124.226-196.873-212.659-392.687-424.265-588.502-635.871-69.483-75.8-161.073-75.8-229.503 0-94.748 103.17-190.55 205.289-285.299 308.461-43.164 47.374-24.214 117.909 35.794 133.701 32.636 7.369 58.955-3.158 80.011-27.373 73.693-80.010 148.44-160.020 222.133-240.030 21.056-21.056 41.058-43.164 62.114-66.324z" />
<glyph unicode="&#xe912;" glyph-name="clock" d="M512 934.4c-268.819 0-486.4-217.544-486.4-486.4 0-268.82 217.544-486.4 486.4-486.4 268.82 0 486.4 217.544 486.4 486.4 0 268.819-217.544 486.4-486.4 486.4zM550.001 39.347v34.985c0 20.987-17.014 38.001-38.001 38.001s-38-17.014-38-38.001v-34.985c-196.386 17.915-352.739 174.295-370.65 370.652h34.985c20.987 0 38 17.014 38 38.001s-17.013 38-38 38h-34.985c17.913 196.386 174.293 352.739 370.65 370.652v-34.984c0-20.987 17.013-38 38-38s38.001 17.013 38.001 38v34.984c196.383-17.915 352.737-174.295 370.647-370.652h-34.98c-20.992 0-38.001-17.013-38.001-38s17.009-38.001 38.001-38.001h34.98c-17.91-196.383-174.29-352.737-370.647-370.652zM688.338 325.407c14.838-14.843 14.838-38.902 0-53.74-14.843-14.843-38.902-14.843-53.74 0l-149.468 149.463c-7.127 7.127-11.13 16.794-11.13 26.87v224.2c0 20.987 17.013 38 38 38s38.001-17.012 38.001-38v-208.461l138.337-138.333z" />
<glyph unicode="&#xe913;" glyph-name="arrow-right" d="M436.586 708.673l-54.894-54.896 205.457-205.454-205.458-205.458 54.894-54.894 260.352 260.352-260.352 260.35z" />
<glyph unicode="&#xe914;" glyph-name="arrow-left" d="M587.414 708.673l54.894-54.896-205.458-205.454 205.458-205.458-54.894-54.894-260.354 260.352 260.354 260.35z" />
<glyph unicode="&#xe915;" glyph-name="arrow-up-long" d="M790.942 490.682l-58.815-58.819-220.132 220.132-220.132-220.132-58.817 58.819 278.949 278.947 278.947-278.947zM462.080 86.956v598.894h99.817v-598.894h-99.817z" />
<glyph unicode="&#xe916;" glyph-name="arrow-right-long" d="M574.376 188.774l-58.819 58.815 220.132 220.132-220.132 220.132 58.819 58.817 278.947-278.949-278.947-278.947zM170.659 517.632h598.896v-99.816h-598.896v99.816z" />
<glyph unicode="&#xe917;" glyph-name="arrow-down-long" d="M233.057 405.346l58.817 58.819 220.131-220.132 220.132 220.132 58.815-58.819-278.947-278.947-278.948 278.947zM561.92 809.060v-598.898h-99.815v598.898h99.815z" />
<glyph unicode="&#xe918;" glyph-name="minus" d="M557.544 520.33c-5.92 0-10.718 4.799-10.718 10.717v-8.037h-107.17v8.037c0-5.918-4.799-10.717-10.717-10.717h-235.772v-107.171h235.772c5.918 0 10.717-4.798 10.717-10.713v8.036h107.17v-8.036c0 5.915 4.798 10.713 10.718 10.713h235.769v107.171h-235.769z" />
<glyph unicode="&#xe919;" glyph-name="phone" d="M40.048 523.679c-17.638 47.644-30.411 96.301-26.559 147.999 2.433 31.83 14.394 58.997 37.709 81.298 25.343 23.923 49.266 49.062 74.202 73.391 32.438 32.033 73.189 31.83 105.627 0 20.071-19.665 39.94-39.737 59.808-59.808 19.26-19.26 38.724-38.52 57.983-57.983 33.858-34.263 34.060-74.202 0.203-108.262-24.329-24.329-48.455-48.86-73.189-72.783-6.488-6.285-7.096-11.556-3.649-19.463 16.219-38.926 39.737-73.594 66.093-106.035 53.117-65.28 113.128-123.264 184.695-168.069 15.406-9.528 32.236-16.625 48.251-25.339 8.315-4.465 13.788-3.041 20.475 3.85 24.131 24.934 48.86 49.469 73.595 73.999 32.44 32.031 72.986 32.236 105.426 0 39.736-39.332 79.273-78.863 118.6-118.605 33.050-33.249 32.845-73.999-0.404-107.448-22.502-22.707-46.223-44.196-67.308-67.917-30.817-34.468-69.745-45.819-113.94-43.387-64.471 3.446-123.873 24.934-181.248 52.71-127.32 61.834-235.987 147.594-327.017 255.857-67.309 80.287-122.86 167.465-159.353 265.994zM1011.169 451.098c0 273.495-222.607 496.102-496.102 496.102v-94.476c221.389 0 401.623-180.235 401.623-401.626h94.479zM739.497 451.098h94.474c0 175.775-143.13 318.908-318.904 318.908v-94.476c60.006 0 116.372-23.315 158.74-65.687 42.373-42.373 65.69-98.734 65.69-158.745z" />
<glyph unicode="&#xe91a;" glyph-name="play" d="M71.578 960l858.95-501.053-858.95-501.053v1002.106z" />
<glyph unicode="&#xe91b;" glyph-name="excellence" d="M891.364 442.498c56.399 0 102.279 45.88 102.279 102.278v90.081h-78.76c-30.278 0-57.507-13.234-76.251-34.21-5.823 14.391-12.6 28.399-20.298 41.932l23.994 23.994c39.88 39.877 39.88 104.762 0 144.641l-55.692 55.693-55.692-55.693c-39.875-39.877-39.875-104.762 0-144.641l5.292-5.29c46.178-53.702 71.512-121.848 71.512-192.979 0-52.243-13.777-103.592-39.848-148.485-25.316-43.604-62.566-80.3-105.882-106.124v-82.325c0-56.399 45.396-102.279 101.79-102.279h90.084v78.76c0 56.301-45.731 102.116-101.995 102.27 21.015 19.577 39.638 41.686 55.366 65.806 14.168-39.503 51.982-67.84 96.298-67.84h90.079v78.755c0 56.399-45.88 102.279-102.279 102.279h-36.022c4.026 17.52 6.707 35.365 8.020 53.378h28.002zM255.219 319.786c-26.078 44.907-39.864 96.265-39.864 148.522 0 68.496 23.686 134.656 66.87 187.444l10.824 10.824c39.877 39.877 39.877 104.762 0 144.641l-55.691 55.693-55.69-55.693c-39.879-39.877-39.879-104.762 0-144.641l23.439-23.439c-7.701-13.495-14.484-27.467-20.324-41.819-18.722 20.595-45.713 33.543-75.673 33.543h-78.759v-90.081c0-56.396 45.881-102.276 102.277-102.276h27.108c1.319-18.013 3.998-35.863 8.021-53.378h-35.128c-56.396-0.005-102.277-45.885-102.277-102.279v-78.76h90.079c43.984 0 81.568 27.909 95.983 66.946 15.605-23.775 34.031-45.573 54.789-64.912-56.266-0.154-101.992-45.968-101.992-102.27v-78.76h90.081c56.396 0 101.577 45.885 101.577 102.279v82.288c-43.333 25.823-80.322 62.52-105.65 106.128zM739.826 470.798c0 125.873-102.405 228.278-228.278 228.278-125.871 0-228.276-102.405-228.276-228.278s102.405-228.278 228.276-228.278c125.873 0 228.278 102.405 228.278 228.278zM482.793 370.669l-87.018 87.017 39.911 39.912 47.107-47.108 113.925 113.921 39.908-39.911-153.833-153.831z" />
<glyph unicode="&#xe91c;" glyph-name="search" d="M466.754 877.598c-211.572 0-383.917-172.344-383.917-383.917 0-211.574 172.345-384.251 383.917-384.251 90.369 0 173.481 31.667 239.166 84.25l159.918-159.831c8.069-7.736 18.847-12.006 30.029-11.889 11.177 0.113 21.868 4.598 29.778 12.498s12.411 18.58 12.539 29.757c0.133 11.182-4.122 21.965-11.848 30.044l-159.913 159.918c52.623 65.787 84.332 149.028 84.332 239.503 0 211.573-172.426 383.917-384.001 383.917zM466.754 792.263c165.453 0 298.584-133.129 298.584-298.583 0-165.453-133.13-298.916-298.584-298.916s-298.583 133.463-298.583 298.916c0 165.454 133.129 298.583 298.583 298.583z" />
<glyph unicode="&#xe91d;" glyph-name="window" d="M102.4 960h250.33c56.554 0 102.4-45.846 102.4-102.4v-250.33c0-56.554-45.846-102.4-102.4-102.4h-250.33c-56.554 0-102.4 45.846-102.4 102.4v250.33c0 56.554 45.846 102.4 102.4 102.4zM102.4 391.093h250.33c56.554 0 102.4-45.846 102.4-102.4v-250.33c0-56.554-45.846-102.4-102.4-102.4h-250.33c-56.554 0-102.4 45.846-102.4 102.4v250.33c0 56.554 45.846 102.4 102.4 102.4zM671.266 960h250.33c56.554 0 102.4-45.846 102.4-102.4v-250.33c0-56.554-45.846-102.4-102.4-102.4h-250.33c-56.554 0-102.4 45.846-102.4 102.4v250.33c0 56.554 45.846 102.4 102.4 102.4zM671.266 391.093h250.33c56.554 0 102.4-45.846 102.4-102.4v-250.33c0-56.554-45.846-102.4-102.4-102.4h-250.33c-56.554 0-102.4 45.846-102.4 102.4v250.33c0 56.554 45.846 102.4 102.4 102.4z" />
<glyph unicode="&#xe91e;" glyph-name="location-3" d="M768.019 830.359c-37.779 34.428-82.051 60.966-130.221 78.060s-99.267 24.4-150.298 21.488c-51.027-2.912-100.963-15.981-146.877-38.443s-86.879-53.864-120.498-92.364c-33.619-38.501-59.212-83.326-75.281-131.847s-22.289-99.762-18.296-150.718 18.119-100.605 41.549-146.032c23.43-45.424 55.694-85.715 94.899-118.512 89.631-74.518 164.52-165.155 220.799-267.232 2.752-5.082 6.829-9.325 11.798-12.278s10.646-4.502 16.426-4.49c5.776 0.003 11.443 1.571 16.403 4.534 4.957 2.963 9.021 7.213 11.757 12.298l2.624 4.928c56.685 100.842 131.421 190.403 220.48 264.224 41.274 35.667 74.467 79.728 97.363 129.238s34.973 103.334 35.421 157.882c0.448 54.547-10.742 108.564-32.822 158.445s-54.544 94.479-95.226 130.82zM512.019 383.99c-31.645 0-62.579 9.386-88.89 26.966-26.314 17.581-46.819 42.57-58.931 71.805-12.109 29.235-15.277 61.408-9.104 92.445s21.411 59.546 43.789 81.922c22.378 22.376 50.886 37.615 81.923 43.788s63.206 3.005 92.445-9.105c29.235-12.11 54.224-32.618 71.805-58.929 17.581-26.314 26.963-57.248 26.963-88.893-0.048-42.419-16.922-83.085-46.918-113.078-29.994-29.997-70.662-46.87-113.082-46.922z" />
<glyph unicode="&#xe91f;" glyph-name="comment" d="M329.766 408.789c0 3.652 0.72 7.27 2.119 10.645s3.448 6.438 6.032 9.024c2.584 2.581 5.651 4.629 9.027 6.029 3.375 1.395 6.993 2.112 10.647 2.112h380.138c7.377 0 14.451-2.931 19.665-8.145 5.218-5.214 8.145-12.288 8.145-19.665 0-7.373-2.927-14.447-8.145-19.661-5.214-5.218-12.288-8.145-19.665-8.145h-380.138c-3.652-0.004-7.269 0.713-10.643 2.112-3.375 1.395-6.441 3.443-9.024 6.025s-4.632 5.645-6.030 9.020c-1.398 3.375-2.117 6.989-2.117 10.641l-0.010 0.009zM329.766 251.187v0.013c0 3.652 0.719 7.27 2.117 10.65 1.398 3.375 3.447 6.443 6.031 9.024s5.652 4.634 9.027 6.029c3.376 1.399 6.994 2.116 10.648 2.116h523.289c7.373 0 14.447-2.931 19.665-8.145 5.214-5.214 8.145-12.288 8.145-19.665s-2.931-14.447-8.145-19.665c-5.218-5.214-12.292-8.145-19.665-8.145h-523.289c-3.652 0-7.269 0.717-10.643 2.108-3.375 1.395-6.442 3.443-9.026 6.025s-4.634 5.645-6.033 9.015c-1.399 3.375-2.12 6.989-2.122 10.641zM989.939 594.62h-741.419c-1.398-0.018-2.734-0.581-3.723-1.57s-1.552-2.324-1.569-3.722v-518.672c0.018-1.399 0.582-2.735 1.57-3.725 0.989-0.986 2.324-1.549 3.722-1.566h532.506c19.337 0.192 38.238-5.769 53.965-17.024l160.239-112.341v653.328c-0.021 1.397-0.585 2.731-1.574 3.718-0.986 0.988-2.321 1.552-3.716 1.574zM28.75 306.671c0.022-1.395 0.587-2.726 1.575-3.712s2.322-1.549 3.717-1.57h153.568v287.939c0.020 16.148 6.443 31.63 17.862 43.048s26.9 17.842 43.049 17.862h532.22v175.108c-0.013 1.397-0.572 2.734-1.562 3.723-0.986 0.989-2.321 1.553-3.721 1.569h-532.482c-19.341-0.198-38.243 5.768-53.966 17.034l-160.26 112.328v-653.329z" />
<glyph unicode="&#xe920;" glyph-name="calendar" d="M896.444 890.179h-86.050v-86.051c0-17.21-14.341-28.684-28.687-28.684-14.341 0-28.682 11.474-28.682 28.684v86.051h-458.935v-86.051c0-17.21-14.342-28.684-28.684-28.684s-28.684 11.474-28.684 28.684v86.051h-86.050c-43.025 0-74.577-37.289-74.577-86.051v-103.261h917.872v103.261c0 48.762-51.629 86.051-97.524 86.051zM76.095 640.632v-524.906c0-51.634 31.552-86.050 77.445-86.050h745.77c45.895 0 97.524 37.288 97.524 86.050v524.906h-920.739zM331.378 158.749h-68.84c-11.474 0-22.947 8.606-22.947 22.947v71.709c0 11.474 8.605 22.947 22.947 22.947h71.708c11.474 0 22.947-8.606 22.947-22.947v-71.709c-2.868-14.341-11.473-22.947-25.815-22.947zM331.378 416.9h-68.84c-11.474 0-22.947 8.606-22.947 22.947v71.71c0 11.473 8.605 22.947 22.947 22.947h71.708c11.474 0 22.947-8.605 22.947-22.947v-71.71c-2.868-14.341-11.473-22.947-25.815-22.947zM560.845 158.749h-71.709c-11.472 0-22.945 8.606-22.945 22.947v71.709c0 11.474 8.605 22.947 22.945 22.947h71.709c11.474 0 22.947-8.606 22.947-22.947v-71.709c0-14.341-8.606-22.947-22.947-22.947zM560.845 416.9h-71.709c-11.472 0-22.945 8.606-22.945 22.947v71.71c0 11.473 8.605 22.947 22.945 22.947h71.709c11.474 0 22.947-8.605 22.947-22.947v-71.71c0-14.341-8.606-22.947-22.947-22.947zM790.313 158.749h-71.709c-11.474 0-22.947 8.606-22.947 22.947v71.709c0 11.474 8.606 22.947 22.947 22.947h71.709c11.474 0 22.947-8.606 22.947-22.947v-71.709c0-14.341-8.606-22.947-22.947-22.947zM790.313 416.9h-71.709c-11.474 0-22.947 8.606-22.947 22.947v71.71c0 11.473 8.606 22.947 22.947 22.947h71.709c11.474 0 22.947-8.605 22.947-22.947v-71.71c0-14.341-8.606-22.947-22.947-22.947z" />
<glyph unicode="&#xe921;" glyph-name="chart" d="M704.132 420.957c-3.974-15.175-10.074-29.711-18.13-43.169l215.83-215.83c62.074 73.153 100.328 163.513 109.641 258.999h-307.341zM579.808 631.604c29.959-7.689 57.3-23.282 79.17-45.151 21.865-21.869 37.459-49.211 45.149-79.167h307.341c-9.723 111.216-58.324 215.45-137.265 294.392-78.946 78.942-183.179 127.544-294.395 137.269v-307.342zM622.904 316.923c-25.971-16.087-55.788-24.883-86.333-25.468-41.394 0.853-81.107 16.55-111.896 44.232s-50.606 65.507-55.838 106.579c-5.232 41.071 4.469 82.656 27.335 117.173s57.374 59.669 97.236 70.87v308.637c-74.353-6.33-146.166-30.094-209.616-69.366s-116.752-92.944-155.582-156.666c-38.83-63.722-62.095-135.698-67.908-210.091-5.813-74.392 5.988-149.11 34.448-218.089 28.46-68.983 72.777-130.282 129.357-178.932 56.58-48.655 123.829-83.285 196.295-101.088s148.105-18.276 220.79-1.38c72.684 16.896 140.361 50.683 197.544 98.621l-215.83 214.967z" />
<glyph unicode="&#xe922;" glyph-name="location-2" d="M396.188 321.141c58.327-77.317 115.636-142.424 140.222-169.555 24.586 27.131 81.896 92.238 140.22 169.555 0.512 1.019 1.36 1.868 2.038 2.716 78.843 105.292 158.535 232.458 158.535 317.066 0 165.825-134.968 300.791-300.793 300.791s-300.791-134.966-300.791-300.791c0-84.608 79.691-211.774 158.534-317.066 0.678-0.848 1.526-1.697 2.035-2.716zM536.41 785.045c79.35 0 144.121-64.77 144.121-144.122s-64.77-144.122-144.121-144.122c-79.352 0-144.122 64.77-144.122 144.122s64.77 144.122 144.122 144.122zM922.683-7.797l-102.41 302.655h-120.891c-73.757-97.324-144.462-173.285-150.567-179.897-3.223-3.389-7.631-5.427-12.376-5.427-4.749 0-9.157 2.038-12.381 5.427-6.105 6.612-76.807 82.573-150.564 179.897h-120.893l-102.411-302.655h772.492z" />
<glyph unicode="&#xe923;" glyph-name="budget" d="M390.289 727.983h292.641l92.687 171.108c2.979 5.505 4.135 11.816 3.291 18.019s-3.638 11.978-7.982 16.488c-4.34 4.51-10.006 7.521-16.174 8.598s-12.517 0.163-18.13-2.608c-66.326-32.748-124.328-18.773-191.488-2.6-66.412 15.997-141.676 34.127-231.031 4.114-4.078-1.37-7.807-3.616-10.926-6.579s-5.551-6.574-7.127-10.577c-1.576-4.003-2.257-8.302-1.996-12.597s1.459-8.479 3.509-12.262l92.726-171.105zM713.743 657.011c-3.833 3.971-7.695 7.969-11.581 11.995h-331.191c-3.879-4.021-7.739-8.019-11.58-11.995-59.8-61.871-116.287-120.315-158.335-185.732-48.346-75.225-70.865-148.968-70.865-232.077 0-96.432 51.994-170.052 150.355-212.904 84.129-36.649 185.648-44.344 255.997-44.344 70.866 0 172.949 7.695 256.829 44.359 97.855 42.764 149.582 116.385 149.582 212.89 0 83.11-22.518 156.852-70.866 232.077-42.047 65.418-98.533 123.861-158.345 185.732zM542.608 383.81c21.124-4.447 42.969-9.045 61.703-21.392 24.347-16.048 36.688-40.853 36.688-73.718 0-43.393-31.685-80.111-74.967-91.804v-15.219c0-7.821-3.111-15.326-8.641-20.855s-13.034-8.641-20.855-8.641c-7.826 0-15.326 3.111-20.86 8.641-5.53 5.53-8.636 13.034-8.636 20.855v15.219c-43.282 11.693-74.97 48.411-74.97 91.804 0 7.821 3.108 15.326 8.639 20.855s13.034 8.641 20.857 8.641c7.823 0 15.325-3.111 20.857-8.641s8.638-13.034 8.638-20.855c0-20.256 20.402-36.723 45.475-36.723s45.47 16.472 45.47 36.723c0 22.811-7.227 28.058-51.546 37.381-21.124 4.447-42.968 9.045-61.702 21.392-24.346 16.048-36.689 40.853-36.689 73.718 0 43.418 31.688 80.158 74.97 91.858v15.163c0 7.823 3.106 15.325 8.636 20.857 5.534 5.532 13.034 8.639 20.86 8.639 7.821 0 15.326-3.108 20.855-8.639s8.641-13.034 8.641-20.857v-15.157c43.281-11.7 74.967-48.437 74.967-91.854 0-7.826-3.106-15.326-8.636-20.86-5.534-5.53-13.034-8.636-20.86-8.636-7.821 0-15.326 3.106-20.855 8.636-5.53 5.534-8.641 13.034-8.641 20.86 0 20.275-20.397 36.771-45.47 36.771s-45.475-16.501-45.475-36.771c0.010-22.825 7.236-28.067 51.556-37.391h-0.010z" />
<glyph unicode="&#xe924;" glyph-name="user" d="M256.010 766.961c0 38.18 11.322 75.501 32.533 107.246s51.36 56.487 86.633 71.098c35.273 14.611 74.087 18.433 111.533 10.985 37.448-7.448 71.84-25.834 98.839-52.831 26.995-26.997 45.383-61.393 52.829-98.839 7.451-37.446 3.628-76.259-10.981-111.533-14.614-35.273-39.356-65.421-71.1-86.633s-69.068-32.533-107.247-32.533c-51.197 0-100.297 20.338-136.499 56.54s-56.54 85.302-56.54 136.499zM598.221 172.403c-12.785 11.922-21.899 27.253-26.258 44.183s-3.789 34.753 1.643 51.371c5.286 16.847 15.267 31.837 28.774 43.203 13.507 11.371 29.974 18.651 47.475 20.982l60.328 8.689c0 0 9.65 0.917 12.546 6.754l19.305 38.61c1.546 2.794 2.219 5.988 1.931 9.167-0.605 2.721-1.941 5.222-3.862 7.241-25.381 25.522-55.871 45.378-89.478 58.27-33.602 12.895-69.554 18.528-105.492 16.53h-193.039c-195.934 0-265.428-143.331-265.428-266.391 0-110.036 58.394-167.946 168.909-167.946h366.29c7.724 0 12.644 5.793 14.96 18.339l9.655 55.496c0.517 2.365 0.385 4.823-0.38 7.114-0.766 2.297-2.136 4.34-3.964 5.92l-43.915 42.467zM1021.313 224.573c2.853 2.745 4.871 6.242 5.822 10.089s0.795 7.885-0.453 11.644c-1.248 3.76-3.53 7.090-6.593 9.606-3.057 2.516-6.768 4.116-10.698 4.613l-96.134 13.658c-3.423 0.473-6.685 1.77-9.499 3.779s-5.105 4.671-6.666 7.753l-41.696 82.622c-1.955 3.789-4.915 6.963-8.553 9.182s-7.817 3.389-12.078 3.389c-4.262 0-8.441-1.17-12.083-3.389-3.638-2.219-6.597-5.393-8.548-9.182l-41.648-82.622c-1.57-3.082-3.857-5.739-6.671-7.748s-6.076-3.306-9.499-3.784l-96.134-13.658c-3.94-0.478-7.66-2.068-10.732-4.584s-5.369-5.851-6.617-9.616c-1.248-3.769-1.399-7.817-0.439-11.664 0.961-3.852 2.994-7.353 5.871-10.089l69.491-66.311c2.506-2.365 4.384-5.31 5.471-8.577s1.346-6.754 0.756-10.147l-15.877-90.678c-0.668-4.203-0.156-8.514 1.487-12.439s4.35-7.314 7.817-9.787c3.467-2.472 7.553-3.93 11.8-4.208s8.489 0.639 12.244 2.638l83.344 42.857c3.087 1.595 6.515 2.428 9.991 2.428s6.9-0.834 9.986-2.428l83.393-42.901c3.755-1.989 7.992-2.896 12.229-2.609 4.242 0.283 8.319 1.741 11.776 4.208 3.457 2.472 6.159 5.856 7.802 9.777 1.638 3.916 2.16 8.216 1.492 12.415l-15.779 90.775c-0.585 3.389-0.332 6.871 0.746 10.133 1.078 3.267 2.945 6.217 5.432 8.592l69.447 66.263z" />
<glyph unicode="&#xe925;" glyph-name="home" horiz-adv-x="1152" d="M1107.994 526.826l-470.363 409.53c-17.058 14.808-38.886 22.966-61.475 22.976s-44.423-8.129-61.494-22.923l-470.208-409.377c-14.393-12.407-24.646-28.919-29.385-47.321s-3.737-37.812 2.873-55.628c6.609-17.816 18.509-33.184 34.103-44.042s34.136-16.688 53.138-16.707h57.604v-333.332c0.030-24.742 9.873-48.467 27.37-65.965s41.219-27.341 65.964-27.373h133.333c24.744 0.032 48.467 9.875 65.964 27.373s27.34 41.222 27.37 65.965v133.331c0.015 13.056 2.761 25.965 8.062 37.894s13.041 22.618 22.719 31.379c9.7 8.832 21.165 15.501 33.636 19.571 12.472 4.064 25.665 5.434 38.707 4.019 23.804-3.667 45.441-15.923 60.834-34.451 15.386-18.528 23.462-42.048 22.707-66.118v-125.626c0.032-24.749 9.875-48.467 27.373-65.965s41.216-27.341 65.958-27.373h133.338c24.742 0.032 48.467 9.875 65.965 27.373 17.491 17.498 27.334 41.216 27.366 65.965v333.332h57.606c18.976 0.015 37.498 5.827 53.075 16.659 15.584 10.831 27.488 26.164 34.112 43.946 6.63 17.782 7.667 37.164 2.976 55.551s-14.893 34.904-29.229 47.336z" />
<glyph unicode="&#xe926;" glyph-name="at" d="M490.659 234.659c-37.974 0-75.095 11.259-106.669 32.358-31.574 21.094-56.184 51.084-70.716 86.165-14.532 35.086-18.334 73.691-10.926 110.932 7.408 37.247 25.694 71.458 52.546 98.31s61.063 45.138 98.307 52.546c37.243 7.409 75.848 3.606 110.934-10.926 35.081-14.532 65.071-39.141 86.165-70.716 21.099-31.574 32.358-68.698 32.358-106.67-0.056-50.907-20.303-99.71-56.297-135.703s-84.797-56.241-135.703-56.297zM490.659 533.326c-21.094 0-41.719-6.256-59.261-17.977s-31.213-28.381-39.286-47.87c-8.073-19.493-10.186-40.937-6.070-61.631 4.116-20.689 14.275-39.699 29.192-54.616 14.918-14.913 33.924-25.074 54.614-29.189 20.694-4.119 42.138-2.006 61.631 6.070 19.489 8.071 36.147 21.746 47.872 39.284 11.72 17.543 17.976 38.167 17.976 59.262-0.033 28.281-11.283 55.394-31.279 75.388-19.996 19.996-47.109 31.245-75.39 31.279zM511.939 21.318c-4.813 0-9.621 0.061-14.457 0.228-107.277 5.129-208.822 49.934-284.926 125.715s-121.34 177.138-126.928 284.393c-2.263 59.257 7.851 118.335 29.695 173.467s54.939 105.105 97.174 146.733c42.235 41.627 92.683 73.995 148.125 95.037s114.662 30.299 173.882 27.178c110.904-7.528 214.682-57.363 289.894-139.211s116.122-189.458 114.269-300.601v-114.269c0-45.265-17.981-88.674-49.985-120.683-32.005-32.005-75.418-49.985-120.678-49.985-45.265 0-88.674 17.981-120.678 49.985-32.009 32.009-49.99 75.418-49.99 120.683v298.665c0 11.316 4.496 22.168 12.497 30.17s18.856 12.497 30.171 12.497c11.315 0 22.17-4.495 30.171-12.497s12.493-18.854 12.493-30.17v-298.665c0-22.635 8.993-44.339 24.995-60.342s37.711-24.995 60.342-24.995c22.63 0 44.335 8.993 60.337 24.995 16.007 16.002 24.995 37.706 24.995 60.342v114.269c1.829 89.264-30.683 175.825-90.829 241.811-60.141 65.987-143.327 106.362-232.378 112.791-47.393 2.515-94.786-4.879-139.158-21.709s-84.748-42.728-118.549-76.039c-33.801-33.312-60.286-73.304-77.763-117.426s-25.562-91.402-23.739-138.827c4.458-85.783 40.633-166.856 101.502-227.468 60.869-60.616 142.089-96.451 227.894-100.552 37.427-1.201 74.808 3.654 110.685 14.373 10.831 3.277 22.519 2.118 32.493-3.221 9.975-5.343 17.417-14.424 20.694-25.256s2.118-22.519-3.221-32.493c-5.343-9.975-14.429-17.417-25.256-20.694-40.136-12.125-81.841-18.269-123.774-18.227z" />
<glyph unicode="&#xe927;" glyph-name="plus" d="M557.544 520.345c-5.92 0-10.718 4.799-10.718 10.717v235.772h-107.17v-235.772c0-5.918-4.799-10.717-10.717-10.717h-235.772v-107.17h235.772c5.918 0 10.717-4.798 10.717-10.718v-235.769h107.17v235.769c0 5.92 4.798 10.718 10.718 10.718h235.769v107.17h-235.769z" />
<glyph unicode="&#xe928;" glyph-name="plane" horiz-adv-x="1063" d="M827.026 786.552c21.35-18.268 28.577-48.31 20.074-82.527l-170.756-685.739c-4.163-16.703-10.996-30.614-20.003-41.145-13.040-15.238-30.96-23.158-49.621-21.933-16.207 1.248-39.467 8.992-60.294 41.5l-134.176 208.514c-3.765 6.258-9.169 12.91-15.427 19.275l253.499 296.302c13.765 16.089 11.863 40.511-4.226 54.276-16.085 13.763-40.511 11.862-54.272-4.226l-253.499-296.302c-7.253 5.14-14.689 9.476-21.43 12.253l-226.769 100.289c-35.337 15.541-46.589 37.325-50.278 53.146-7.043 30.85 11.842 61.806 51.492 78.545l651.071 274.864c32.484 13.696 63.26 11.177 84.614-7.090z" />
<glyph unicode="&#xe929;" glyph-name="arrow-down" d="M110.333 558.327l120.679 120.68 280.994-280.994 280.993 280.994 120.681-120.68-401.674-401.673-401.673 401.673z" />
<glyph unicode="&#xe92a;" glyph-name="phone-2" d="M649.37 151.815c-25.878 0-51.31 6.744-73.787 19.573-131.507 74.723-241.557 182.053-319.549 311.651l-14.601 24.097c-16.943 28.186-23.96 61.232-19.932 93.87s18.869 62.987 42.157 86.207l28.827 28.725c15.167 15.134 35.717 23.634 57.144 23.634 21.425 0 41.978-8.5 57.144-23.634l63.371-63.338c12.431-12.509 20.447-28.726 22.835-46.197s-0.98-35.244-9.596-50.63l-18.48-32.845 125.725-125.722 32.808 18.512c15.389 8.616 33.163 11.984 50.637 9.589s33.69-10.423 46.19-22.861l63.375-63.371c15.133-15.17 23.632-35.719 23.632-57.147 0-21.424-8.499-41.977-23.632-57.143l-29.985-29.985c-13.711-13.667-29.981-24.499-47.879-31.876-17.902-7.376-37.043-11.151-56.404-11.11zM349.629 657.398l-28.112-28.112c-10.389-10.349-17.010-23.881-18.805-38.434-1.795-14.555 1.339-29.29 8.901-41.852l14.465-24.097c70.108-116.696 168.957-213.475 287.116-281.092 12.716-8.119 27.805-11.692 42.814-10.138 15.005 1.558 29.045 8.155 39.819 18.714l29.985 29.985-63.371 62.113-41.147-23.823c-12.848-7.212-27.696-10.032-42.291-8.035s-28.138 8.7-38.576 19.094l-141.005 140.972c-10.368 10.456-17.050 23.998-19.046 38.583-1.997 14.588 0.808 29.429 7.984 42.284l23.826 42.202-62.557 61.636z" />
<glyph unicode="&#xe92b;" glyph-name="location" d="M772.347 775.426c-69.53 69.532-161.976 107.825-260.311 107.825-98.331 0-190.781-38.293-260.311-107.825-69.532-69.534-107.825-161.98-107.825-260.311 0-198.919 188.085-364.372 289.132-453.26 14.042-12.355 26.168-23.020 35.829-32.046 12.104-11.305 27.64-16.957 43.174-16.957s31.068 5.652 43.172 16.957c9.661 9.027 21.791 19.692 35.83 32.046 101.048 88.888 289.132 254.341 289.132 453.26 0 98.33-38.292 190.777-107.822 260.311zM557.363 100.137c-14.351-12.626-26.742-23.526-36.961-33.070-4.69-4.378-12.043-4.383-16.738 0-10.215 9.549-22.608 20.449-36.958 33.070-94.996 83.564-271.823 239.114-271.823 414.977 0 174.876 142.272 317.148 317.148 317.148 174.879 0 317.148-142.272 317.148-317.148 0.005-175.862-176.819-331.413-271.816-414.977zM512.005 691.251c-89.457 0-162.234-72.775-162.234-162.231 0-89.458 72.777-162.233 162.234-162.233s162.232 72.776 162.232 162.233c0 89.456-72.776 162.231-162.232 162.231zM512.005 417.777c-61.342 0-111.247 49.905-111.247 111.245s49.906 111.245 111.247 111.245c61.343 0 111.242-49.905 111.242-111.245s-49.9-111.245-111.242-111.245z" />
<glyph unicode="&#xe92c;" glyph-name="phone-3" d="M549.495 859.447c0 9.917 3.942 19.429 10.953 26.442 7.014 7.013 16.525 10.953 26.445 10.953 99.14-0.109 194.193-39.541 264.294-109.646 70.106-70.104 109.538-165.155 109.645-264.299 0-9.916-3.938-19.426-10.953-26.441-7.010-7.010-16.525-10.953-26.441-10.953s-19.43 3.942-26.441 10.953c-7.014 7.014-10.953 16.525-10.953 26.441-0.090 79.315-31.637 155.354-87.718 211.437-56.085 56.083-132.122 87.63-211.435 87.718-9.92 0-19.43 3.94-26.445 10.953-7.010 7.013-10.953 16.524-10.953 26.442zM586.893 672.476c39.667 0 77.713-15.759 105.766-43.81 28.049-28.051 43.81-66.097 43.81-105.769 0-9.916 3.938-19.426 10.953-26.441 7.010-7.010 16.525-10.953 26.441-10.953s19.43 3.942 26.441 10.953c7.014 7.014 10.953 16.525 10.953 26.441-0.060 59.489-23.714 116.523-65.779 158.587s-99.098 65.721-158.583 65.78c-9.92 0-19.43-3.94-26.445-10.953-7.010-7.013-10.953-16.524-10.953-26.442s3.942-19.429 10.953-26.441c7.014-7.013 16.525-10.953 26.445-10.953zM926.916 270.899c21.67-21.73 33.839-51.166 33.839-81.856s-12.169-60.126-33.839-81.856l-34.027-39.228c-306.261-293.205-1051.527 451.874-762.844 759.104l43.003 37.394c21.755 21.065 50.929 32.718 81.209 32.438s59.234-12.47 80.596-33.934c1.159-1.159 70.451-91.167 70.451-91.167 20.561-21.6 32.007-50.293 31.956-80.113-0.047-29.821-11.587-58.476-32.218-80.009l-43.303-54.446c23.964-58.228 59.197-111.143 103.676-155.712 44.48-44.57 97.327-79.91 155.503-103.991l54.784 43.567c21.534 20.612 50.185 32.141 79.996 32.179 29.811 0.043 58.496-11.401 80.090-31.957 0 0 89.967-69.252 91.127-70.413zM875.46 216.529c0 0-89.481 68.843-90.641 70.003-7.706 7.637-18.112 11.921-28.962 11.921s-21.257-4.284-28.962-11.921c-1.011-1.050-76.433-61.141-76.433-61.141-5.082-4.045-11.132-6.699-17.553-7.693-6.417-0.998-12.988-0.307-19.055 2.010-75.371 28.062-143.829 71.991-200.74 128.819s-100.943 125.218-129.116 200.548c-2.498 6.153-3.312 12.86-2.359 19.432s3.639 12.772 7.782 17.962c0 0 60.093 75.462 61.103 76.434 7.638 7.704 11.924 18.113 11.924 28.962s-4.286 21.258-11.924 28.962c-1.159 1.122-70.002 90.681-70.002 90.681-7.82 7.011-18.024 10.766-28.523 10.495s-20.496-4.547-27.943-11.953l-43.003-37.394c-210.978-253.683 434.859-863.693 657.165-653.615l34.069 39.266c7.983 7.394 12.774 17.604 13.367 28.467 0.593 10.867-3.059 21.534-10.193 29.756z" />
<glyph unicode="&#xe92d;" glyph-name="envelop-2" d="M778.779 617.768q-5.389 13.474-13.474 21.558-8.084 10.779-18.863 16.168-13.474 5.389-26.947 8.084h-417.684c-16.168-2.695-32.337-10.779-43.116-21.558-10.779-13.474-16.168-32.337-16.168-48.505v-274.863c0-16.168 5.389-35.032 16.168-45.811 10.779-13.474 26.947-21.558 45.811-24.253h417.684c16.168 2.695 32.337 10.779 43.116 24.253 10.779 10.779 18.863 29.642 16.168 45.811v274.863q0 13.474-2.695 24.253zM512 450.695l-158.989 150.905h323.368zM307.2 561.179l158.989-156.295q8.084-8.084 21.558-13.474 10.779-5.389 24.253-5.389 10.779 0 24.253 5.389 10.779 5.389 18.863 13.474l164.379 150.905v-237.137q0-5.389 0-8.084h-412.295q0 2.695 0 8.084z" />
<glyph unicode="&#xe92e;" glyph-name="quote" horiz-adv-x="1260" d="M1220.923 652.8v-149.662c0-288.821-233.682-522.503-519.877-522.503-15.754 0-26.256 10.503-26.256 23.631 0 15.754 10.503 26.256 26.256 26.256 257.313 0 467.364 207.426 469.99 464.738-47.262-70.892-131.282-118.154-223.179-118.154-149.662 0-273.067 123.405-273.067 275.692 0 149.662 123.405 273.067 273.067 273.067 152.287 0 273.067-123.405 273.067-273.067zM575.015 652.8v-149.662c0-288.821-233.682-522.503-519.877-522.503-15.754 0-26.256 10.503-26.256 23.631 0 15.754 10.503 26.256 26.256 26.256 257.313 0 467.364 207.426 469.99 464.738-49.887-70.892-131.282-118.154-223.179-118.154-149.662 0-273.067 123.405-273.067 275.692 0 149.662 123.405 273.067 273.067 273.067 152.287 0 273.067-123.405 273.067-273.067z" />
<glyph unicode="&#xe92f;" glyph-name="list" horiz-adv-x="1109" d="M554.667 448c0-183.040-94.293-346.667-235.733-438.187-77.653-52.693-174.72-83.2-277.333-83.2q-22.187 0-41.6 2.773v1037.227q19.413 2.773 41.6 2.773c102.613 0 199.68-30.507 277.333-83.2 141.44-91.52 235.733-255.147 235.733-438.187zM1109.333 448c0-288.427-230.187-521.387-513.067-521.387q-22.187 0-41.6 2.773v1037.227q19.413 2.773 41.6 2.773c282.88 0 513.067-232.96 513.067-521.387z" />
<glyph unicode="&#xe930;" glyph-name="innovative" d="M555.886 821.841c-61.765 60.14-143.035 91.022-230.806 89.397-172.292-4.876-310.451-144.66-308.825-312.076 1.625-97.524 50.387-190.171 131.657-247.060 42.26-29.257 68.267-76.394 68.267-125.156v-60.14c0-4.876 1.625-9.752 4.876-14.629-4.876-4.876-8.127-11.378-8.127-17.879v-121.905c0-14.629 13.003-27.632 27.632-27.632h183.67c14.629 0 26.006 11.378 26.006 26.006v123.53c0 6.502-1.625 13.003-6.502 17.879 4.876 3.251 8.127 9.752 8.127 14.629v58.514c0 50.387 24.381 97.524 66.641 126.781 82.895 58.514 131.657 152.787 131.657 250.311 0 82.895-32.508 160.914-94.273 219.429zM433.981 10.768c0-4.876-4.876-9.752-9.752-9.752h-183.67c-6.502 0-11.378 4.876-11.378 11.378v121.905c0 6.502 4.876 11.378 11.378 11.378h183.67c4.876 0 9.752-4.876 9.752-11.378zM508.749 365.105c-45.511-32.508-73.143-84.521-73.143-139.784v-58.514c0-3.251-3.251-6.502-8.127-6.502h-52.013c0 21.13 1.625 42.26 3.251 69.892 3.251 61.765 11.378 110.527 22.756 156.038 4.876 22.756 13.003 50.387 26.006 78.019q11.378-1.625 21.13-1.625c19.505 0 35.759 3.251 47.137 11.378 13.003 6.502 22.756 21.13 21.13 34.133 0 11.378-6.502 21.13-16.254 26.006-17.879 8.127-35.759 3.251-52.013-11.378-13.003-13.003-21.13-27.632-29.257-42.26q-24.381 4.876-53.638 19.505-11.378 4.876-19.505 9.752 9.752 6.502 14.629 17.879c11.378 22.756 8.127 42.26-9.752 52.013-9.752 6.502-22.756 6.502-32.508 0-11.378-4.876-17.879-14.629-19.505-26.006-1.625-16.254 6.502-32.508 21.13-43.886q-8.127-4.876-19.505-9.752-29.257-14.629-53.638-19.505c-8.127 14.629-16.254 29.257-27.632 42.26-17.879 14.629-35.759 19.505-53.638 11.378-9.752-4.876-16.254-14.629-16.254-26.006 0-13.003 8.127-27.632 21.13-34.133 11.378-8.127 27.632-11.378 48.762-11.378q8.127 0 19.505 1.625c13.003-27.632 21.13-55.263 26.006-78.019 11.378-45.511 19.505-94.273 22.756-156.038 1.625-27.632 3.251-48.762 3.251-69.892h-52.013c-4.876 0-8.127 3.251-8.127 6.502v60.14c0 53.638-27.632 105.651-73.143 138.159-78.019 53.638-123.53 141.41-125.156 232.432-1.625 160.914 130.032 294.197 292.571 297.448h8.127c79.644 0 156.038-30.883 212.927-84.521 56.889-55.263 87.771-130.032 87.771-208.051 0-92.648-47.137-182.044-125.156-237.308zM315.327 552.025c0 4.876 4.876 11.378 9.752 14.629 3.251 0 6.502 1.625 9.752 1.625q3.251 0 8.127-1.625c14.629-8.127 6.502-26.006 4.876-30.883q-4.876-9.752-13.003-16.254 0 0-1.625-1.625 0 1.625-1.625 1.625c-8.127 8.127-17.879 19.505-16.254 32.508zM303.949 230.197c-3.251 63.39-11.378 113.778-22.756 160.914-6.502 21.13-13.003 48.762-26.006 74.768q24.381 6.502 52.013 19.505 14.629 6.502 26.006 13.003 11.378-6.502 26.006-13.003 27.632-13.003 52.013-19.505c-13.003-26.006-19.505-53.638-26.006-74.768-11.378-47.137-19.505-97.524-22.756-160.914-1.625-26.006-3.251-48.762-3.251-69.892h-52.013c0 21.13-1.625 43.886-3.251 69.892zM435.606 478.883c6.502 11.378 14.629 22.756 22.756 32.508 6.502 4.876 21.13 14.629 35.759 8.127q6.502-3.251 6.502-11.378c0-8.127-4.876-16.254-13.003-21.13q-13.003-8.127-40.635-8.127-4.876 0-11.378 0zM230.806 478.883q-6.502 0-11.378 0-27.632 0-40.635 8.127c-8.127 4.876-13.003 13.003-13.003 21.13q0 8.127 8.127 11.378 4.876 3.251 9.752 3.251c9.752 0 19.505-8.127 24.381-11.378 8.127-9.752 16.254-21.13 22.756-32.508z" />
<glyph unicode="&#xe931;" glyph-name="star" d="M383.229-35.847l5.935 169.957 53.416 215.945-184.856-139.882-154.404-76.288-89.702 159.682 154.523 79.686 217.727 70.672-212.386 82.288-148.706 86.871 100.742 156.435 148.707-86.871 174.766-149.040-38.223 219.143 5.816 166.557 190.325-6.646-5.816-166.557-49.891-216.066 184.741 136.486 154.399 76.287 86.064-162.959-150.883-76.41-217.608-67.272 212.269-85.688 148.589-90.27-100.625-153.033-148.705 86.869-174.65 152.438 34.698-219.019-5.935-169.957-190.325 6.642z" />
<glyph unicode="&#xe932;" glyph-name="arrow-left-long" d="M449.637 707.221l58.816-58.817-220.13-220.131 220.13-220.132-58.816-58.815-278.948 278.947 278.948 278.947zM853.364 378.363h-598.896v99.817h598.896v-99.817z" />
<glyph unicode="&#xe933;" glyph-name="dart-board" d="M481.839 851.669c63.347 0 123.516-13.598 177.754-38.028l-28.365-28.334 20.627-95.705-30.374-30.308c-41.052 23.842-88.749 37.502-139.642 37.502-153.792 0-278.467-124.674-278.467-278.468s124.675-278.468 278.467-278.468c153.794 0 278.468 124.674 278.468 278.468 0 50.682-13.542 98.202-37.205 139.136l30.159 30.093 96.516-20.8 27.998 27.966c24.043-53.884 37.408-113.579 37.408-176.395 0-239.328-194.014-433.342-433.342-433.342s-433.341 194.014-433.341 433.342c0 239.328 194.013 433.342 433.339 433.342zM481.839 493.922c-41.762 0-75.593-33.828-75.593-75.593s33.83-75.597 75.593-75.597c41.766 0 75.597 33.83 75.597 75.597 0 12.122-2.854 23.571-7.919 33.724l188.324 187.932 96.486-20.794 138.208 138.208c2.656 2.656 3.584 6.292 2.519 9.898-1.060 3.606-3.808 6.156-7.484 6.948l-106.010 22.846-22.85 106.008c-0.791 3.674-3.343 6.422-6.948 7.486-3.605 1.062-7.238 0.136-9.894-2.522l-138.208-138.208 20.631-95.737-188.585-188.19c-10.187 5.114-21.69 7.994-33.869 7.994zM481.839 648.796c-127.283 0-230.466-103.185-230.466-230.468 0-127.285 103.183-230.468 230.466-230.468 127.285 0 230.468 103.183 230.468 230.468 0 37.331-8.885 72.587-24.644 103.774l-83.863-83.689c1.071-6.539 1.634-13.246 1.634-20.085 0-68.26-55.337-123.595-123.595-123.595-68.256 0-123.593 55.337-123.593 123.595s55.334 123.595 123.593 123.595c6.931 0 13.726-0.58 20.343-1.677l83.866 83.691c-31.294 15.893-66.703 24.86-104.209 24.86z" />
<glyph unicode="&#xe934;" glyph-name="eye-box" d="M160 864h112c8.832 0 16-7.168 16-16v-32c0-8.832-7.168-16-16-16h-112v-112c0-8.832-7.168-16-16-16h-32c-8.832 0-16 7.168-16 16v112c0 35.36 28.64 64 64 64zM912 672h-32c-8.832 0-16 7.168-16 16v112h-112c-8.832 0-16 7.168-16 16v32c0 8.832 7.168 16 16 16h112c35.36 0 64-28.64 64-64v-112c0-8.832-7.168-16-16-16zM112 224h32c8.832 0 16-7.168 16-16v-112h112c8.832 0 16-7.168 16-16v-32c0-8.832-7.168-16-16-16h-112c-35.36 0-64 28.64-64 64v112c0 8.832 7.168 16 16 16zM864 32h-112c-8.832 0-16 7.168-16 16v32c0 8.832 7.168 16 16 16h112v112c0 8.832 7.168 16 16 16h32c8.832 0 16-7.168 16-16v-112c0-35.36-28.64-64-64-64zM512 736c-310.144 0-448-288-448-288s137.856-288 448-288c310.144 0 448 288 448 288s-137.856 288-448 288zM512 256c-106.048 0-192 85.952-192 192s85.952 192 192 192c106.048 0 192-85.952 192-192s-85.952-192-192-192zM633.888 485.088c3.616-11.808 6.112-24.096 6.112-37.088 0-70.688-57.312-128-128-128s-128 57.312-128 128c0 70.688 57.312 128 128 128 12.992 0 25.28-2.496 37.088-6.112-21.856-10.176-37.088-32.192-37.088-57.888 0-35.36 28.64-64 64-64 25.696 0 47.712 15.232 57.888 37.088z" />
<glyph unicode="&#xe935;" glyph-name="add-cart" d="M768 224c-18.987 0-37.549-5.632-53.335-16.179s-28.093-25.541-35.36-43.083c-7.263-17.542-9.165-36.844-5.463-55.465 3.706-18.625 12.847-35.73 26.273-49.156s30.531-22.567 49.156-26.273c18.621-3.702 37.923-1.8 55.465 5.463 17.542 7.266 32.536 19.574 43.083 35.36s16.179 34.347 16.179 53.335c-0.028 25.45-10.149 49.853-28.148 67.852s-42.401 28.121-67.852 28.148zM768 96c-6.329 0-12.516 1.879-17.778 5.392-5.262 3.517-9.366 8.515-11.788 14.364-2.418 5.845-3.052 12.28-1.82 18.487 1.237 6.207 4.281 11.91 8.759 16.384 4.474 4.478 10.177 7.522 16.384 8.759 6.207 1.233 12.642 0.599 18.487-1.82 5.849-2.422 10.847-6.526 14.364-11.788 3.513-5.262 5.392-11.449 5.392-17.778-0.012-8.483-3.387-16.616-9.385-22.615s-14.131-9.374-22.615-9.385zM576 224h-256c-8.487 0-16.626 3.371-22.627 9.374-6.001 5.998-9.373 14.139-9.373 22.626s3.371 16.628 9.373 22.626c6.001 6.002 14.14 9.374 22.627 9.374h512c7.574 0 14.903 2.686 20.681 7.582s9.633 11.681 10.882 19.153l64 383.998c0.764 4.584 0.52 9.281-0.713 13.762s-3.43 8.639-6.432 12.186c-3.005 3.547-6.747 6.396-10.961 8.352-4.218 1.955-8.81 2.967-13.458 2.968h-512c-8.487 0-16.626-3.371-22.627-9.373s-9.373-14.14-9.373-22.627c0-8.487 3.371-16.626 9.373-22.627s14.14-9.373 22.627-9.373h474.218l-53.331-320h-398.718l-184.201 491.235c-2.289 6.099-6.385 11.355-11.74 15.065s-11.714 5.699-18.228 5.7h-64c-8.487 0-16.626-3.371-22.627-9.373s-9.373-14.14-9.373-22.627c0-8.487 3.371-16.626 9.373-22.627s14.14-9.373 22.627-9.373h41.827l168-448h-17.827c-23.316 0.165-45.891-8.188-63.483-23.493s-28.989-36.506-32.050-59.62c-3.061-23.115 2.423-46.553 15.424-65.91s32.622-33.3 55.178-39.211c-6.015-14.454-8.41-30.157-6.977-45.749 1.433-15.588 6.651-30.594 15.201-43.709s20.172-23.946 33.859-31.547c13.686-7.601 29.021-11.748 44.674-12.079 15.652-0.327 31.15 3.17 45.143 10.189 13.993 7.022 26.061 17.353 35.155 30.098s14.939 27.514 17.026 43.032c2.087 15.518 0.354 31.307-5.045 46.001h101.896c8.487 0 16.628 3.371 22.626 9.374 6.002 6.002 9.374 14.139 9.374 22.626s-3.371 16.628-9.374 22.626c-5.998 6.002-14.139 9.374-22.626 9.374zM416 128c0-6.329-1.879-12.516-5.392-17.778-3.517-5.262-8.515-9.366-14.364-11.788-5.846-2.418-12.28-3.052-18.488-1.82-6.207 1.237-11.909 4.281-16.384 8.759-4.475 4.474-7.523 10.177-8.758 16.384s-0.601 12.642 1.821 18.487c2.422 5.849 6.523 10.847 11.786 14.364s11.449 5.392 17.778 5.392c8.483-0.012 16.616-3.387 22.615-9.385s9.374-14.131 9.385-22.615z" />
<glyph unicode="&#xe936;" glyph-name="curve-arrow" d="M991.859 794.802h-326.179c-17.74 0-32.141-14.38-32.141-32.139v-64.92c0-17.74 14.401-32.141 32.141-32.141h137.78l-281.92-281.899-119.52 119.52c-25.24 25.22-66.14 25.22-91.38 0l-301.22-301.261c-12.56-12.539-12.56-32.899 0-45.44l45.9-45.919c12.54-12.541 32.9-12.541 45.44 0l255.58 255.58 119.5-119.52c25.238-25.246 66.144-25.257 91.38 0l327.58 327.58v-137.781c0-17.74 14.38-32.139 32.141-32.139h64.919c17.761 0 32.141 14.4 32.141 32.139v326.201c0 17.759-14.38 32.139-32.141 32.139z" />
<glyph unicode="&#xe937;" glyph-name="w-dot" horiz-adv-x="1843" d="M1130.496 939.52l-172.216-666.931-162.57 666.931h-221.86l-162.632-666.931-172.093 666.931h-239.124l307.937-971.489h210.432l166.38 628.408 166.441-628.408h210.432l307.876 971.489h-239.002zM1521.869 118.374c0-92.529 68.813-161.894 160.666-161.894 91.791 0 160.666 69.427 160.666 161.894 0 92.529-68.813 161.956-160.666 161.956s-160.666-69.427-160.666-161.956z" />
<glyph unicode="&#xe938;" glyph-name="star-2" horiz-adv-x="1092" d="M145.371 512.774l179.511-174.987-42.392-247.15c-1.845-10.807 2.593-21.729 11.469-28.18 5.015-3.659 10.98-5.509 16.946-5.509 4.582 0 9.193 1.099 13.4 3.318l221.961 116.688 221.932-116.661c9.687-5.127 21.47-4.294 30.345 2.191 8.881 6.451 13.319 17.374 11.469 28.18l-42.387 247.151 179.535 174.958c7.844 7.666 10.697 19.135 7.291 29.539-3.4 10.403-12.418 18.040-23.279 19.625l-248.102 36.023-110.952 224.843c-9.712 19.683-41.989 19.683-51.7 0l-110.952-224.843-248.099-36.023c-10.865-1.585-19.885-9.193-23.285-19.625s-0.547-21.845 7.291-29.539z" />
<glyph unicode="&#xe939;" glyph-name="manage" d="M762.381 286.528c0-59.607-48.041-107.648-107.648-107.648s-107.65 48.041-107.65 107.648c0 59.607 48.043 107.65 107.65 107.65 59.607-0.892 107.648-48.932 107.648-107.65zM573.749 692.22c-176.154 0-318.5-142.347-318.5-318.5 0-176.151 142.347-318.498 318.5-318.498 176.151 0 318.498 142.347 318.498 318.498 0 176.154-143.236 318.5-318.498 318.5zM628.907 116.608c-111.206 0-201.062 89.856-201.062 201.062 0 111.209 89.856 201.065 201.062 201.065 111.209 0 201.065-89.856 201.065-201.065 0.89-110.317-89.856-201.062-201.065-201.062zM511.556 960c-282.025 0-511.556-229.532-511.556-511.556 0-282.912 229.532-511.554 511.556-511.554 282.912 0 511.554 229.532 511.554 511.554 0.89 282.025-228.642 511.556-511.554 511.556zM540.023-18.628c-238.428 0-432.374 193.948-432.374 432.375 0 238.43 193.947 432.376 432.374 432.376 238.43 0 432.375-193.946 432.375-432.376 0-238.428-193.946-432.375-432.375-432.375z" />
<glyph unicode="&#xe93a;" glyph-name="operations" horiz-adv-x="1045" d="M635.213 435.087c0-75.046-60.521-135.567-135.565-135.567s-135.565 60.521-135.565 135.567c0 75.044 60.521 135.565 135.565 135.565 75.044-1.212 135.565-61.73 135.565-135.565zM767.198 886.568c-117.41 72.624-400.644 84.728-554.365-37.522 43.574 14.525 90.781 22.998 139.197 22.998 240.87 0 436.956-196.086 436.956-436.956 1.21-242.080-226.347-438.165-436.956-438.165-48.416 0-94.411 8.474-137.986 21.788 152.51-116.198 422.43-88.358 553.154-25.419 134.353 65.361 257.815 213.030 257.815 440.587s-130.724 375.225-257.815 452.69zM499.686 174.852c-144.038 0-260.237 116.198-260.237 260.237s116.198 260.237 260.237 260.237c19.366 0 37.521-2.421 55.678-6.052-76.256 71.413-185.193 116.198-301.391 84.728-141.616-37.523-252.973-181.56-252.973-338.912s111.357-301.391 252.973-338.912c116.198-30.261 225.135 14.524 301.391 84.727-18.157-3.631-36.311-6.052-55.678-6.052z" />
<glyph unicode="&#xe93b;" glyph-name="organize" d="M935.467 729.099c-87.401-87.565-174.801-175.132-262.202-262.697 3.543-14.199 5.905-28.399 5.905-43.782 0-66.266-42.517-123.066-102.754-143.181v-326.596c250.391 23.667 446.451 235.479 446.451 492.26 1.18 105.314-31.889 203.531-87.401 283.996zM466.528 637.984c0-128.981-103.936-233.114-232.674-233.114-129.919 0-233.854 104.132-233.854 233.114s103.935 234.297 232.674 234.297c128.738 0 233.854-105.315 233.854-234.297zM529.101 940.911c-44.881 0-88.582-5.917-131.102-17.75 98.031-56.799 164.173-163.298 164.173-285.18 0-22.483-2.364-44.966-7.087-66.266 22.441-4.734 43.699-14.199 61.417-27.217 85.037 85.199 170.076 170.398 256.294 256.781-88.58 86.382-210.234 139.631-343.695 139.631zM393.31 350.436c-47.243-27.217-102.754-42.601-160.627-42.601-72.045 0-138.186 23.667-192.516 62.716 34.252-222.464 216.138-396.412 441.726-417.711v324.23c-37.794 13.015-69.683 39.049-88.582 73.365z" />
<glyph unicode="&#xe93c;" glyph-name="performance" horiz-adv-x="1513" d="M858.673 532.899c74.817-3.684 139.653-27.164 143.404-52.638 4.073-26.589-58.070-45.794-139.904-42.936l-3.5 95.574zM865.343 351.306l-3.475 87.131c-81.040 4.296-145.080 29.212-143.255 56.301 2.148 25.977 63.823 42.633 140.079 38.158l-2.127 65.787c-184.097 9.46-344.427-29.731-360.967-93.682-19.712-69.697 145.289-142.641 369.745-153.695zM853.814 658.257l2.423-58.459c184.097-9.463 347.606-64.728 369.987-129.478 23.524-72.872-135.638-128.628-360.092-117.576l2.56-100.675c387.651-19.323 642.041 83.333 580.077 205.438-51.696 103.347-315.143 186.412-594.956 200.751zM868.675 252.072c-387.651 19.323-651.088 148.271-597.874 265.1 44.344 97.357 302.071 155.101 582.998 141.086l-1.601 51.451c-365.317 17.343-714.713-53.672-797.076-182.563-104.738-164.35 248.708-357.781 817.903-386.097l-4.35 111.023z" />
<glyph unicode="&#xe93d;" glyph-name="process-1" horiz-adv-x="1074" d="M451.017 417.077c0-77.043-62.662-139.705-139.705-139.705s-140.732 62.662-140.732 139.705c0 77.044 62.662 139.705 139.705 139.705s140.732-62.661 140.732-139.705zM625.666 687.239c0-66.77-53.416-120.186-120.188-120.186s-120.188 53.416-120.188 120.186c0 66.771 53.416 120.188 120.188 120.188s120.188-53.417 120.188-120.188zM925.607 585.543c0-55.471-45.198-99.642-99.642-99.642-55.471 0-99.642 45.198-99.642 99.642 0 55.471 45.198 99.642 99.642 99.642s99.642-44.171 99.642-99.642zM894.766 253.746c0-44.171-35.954-80.125-80.125-80.125s-80.125 35.954-80.125 80.125c0 44.172 35.952 80.125 80.125 80.125 44.171 0 80.125-35.952 80.125-80.125zM565.032 146.913c0-32.872-26.708-59.58-59.58-59.58s-59.58 26.708-59.58 59.58c0 32.87 26.708 59.579 59.58 59.579s59.58-26.708 59.58-59.579z" />
<glyph unicode="&#xe93e;" glyph-name="strategy" d="M944.326 696.42c28.418-172.657-87.091-335.211-259.439-363.682-172.348-28.469-334.609 87.247-363.029 259.904-29.335 170.819 87.091 334.292 258.522 362.762 172.348 29.388 334.611-87.247 363.947-258.984zM452.006 244.578c-20.166 123.063 40.337 240.617 142.095 298.475-77.005 74.389-187.014 112.043-300.691 92.757-191.598-32.143-320.858-213.065-288.773-405.007s213.6-321.436 405.199-289.293c74.257 12.858 139.345 47.757 189.766 97.348-76.090 40.41-132.011 114.799-147.597 205.719zM1019.452 339.17c-26.586 157.043-174.182 262.658-330.944 236.943-33.92-5.51-65.088-17.449-93.508-33.060 53.171-50.511 90.758-118.473 103.593-196.535 19.251-117.553-21.086-230.515-99.008-308.578 54.086-29.387 118.259-42.244 184.265-31.223 156.764 27.55 262.189 175.411 235.603 332.454z" />
</font>
</defs>
</svg>
